• ¡Venta de ConsoleIDs rápidas y confiables!
    ¡Contacta con KAKAROTO!
    Skype: tony83248
    WhatsApp: +34 631 04 19 63
  • Hola Invitado, entérate de los cursos que ofrecemos y manuales que puedes adquirir para aprender hacking y seguridad informática contactando con uno de los administradores de la web o bien mandando un ticket de soporte.

DOCUMENTALES El Silencio de Otros (2018)[MicroHD 1080p][Castellano][Documental/Posguerra Española][VS]




parrix

    
Registrado
3 Mar 2019
Mensajes
44
Puntos
8
Edad
29
Ubicación
Madrid









Título original El silencio de otros
Año 2018
Duración 95 min.
País España
Dirección Almudena Carracedo, Robert Bahar
Guion Almudena Carracedo, Robert Bahar
Música Leonardo Heiblum, Jacobo Lieberman
Fotografía Almudena Carracedo
Reparto Documentary
Productora Coproducción España-Estados Unidos-Francia-Canadá; Semilla Verde Productions / Lucernam Films / American Documentary POV / Independent Television Service / Latino Public Broadcasting (LPB) / El Deseo
Género Documental | Posguerra española





Calidad: MicroHD 1080p
Formato: MKV
Resolución: 1912x1036p
Video: AVC
Audio: Castellano AC3 5.1
Tamaño: 3,8 GB
Subtítulos: Forzados Español



MediaInfo:

Código:
General
Unique ID                   : 247596739120607929224735584175061945240 (0xBA4565BC0A0CA85BBC7205148A174B98)
Complete name               : C:\Users\User\Desktop\El.Silenci0.de.Otros.1O8O.mkv
Format                      : Matroska
Format version              : Version 4 / Version 2
File size                   : 3.70 GiB
Duration                    : 1 h 35 min
Overall bit rate            : 5 539 kb/s
Movie name                  : El.Silenci0.de.Otros.1O8O.mkv
Encoded date                : UTC 2019-02-21 22:25:03
Writing application         : mkvmerge v24.0.0 ('Beyond The Pale') 64-bit
Writing library             : libebml v1.3.6 + libmatroska v1.4.9

Video
ID                          : 1
Format                      : AVC
Format/Info                 : Advanced Video Codec
Format profile              : [email protected]
Format settings             : CABAC / 4 Ref Frames
Format settings, CABAC      : Yes
Format settings, RefFrames  : 4 frames
Codec ID                    : V_MPEG4/ISO/AVC
Duration                    : 1 h 35 min
Bit rate                    : 5 153 kb/s
Width                       : 1 912 pixels
Height                      : 1 036 pixels
Display aspect ratio        : 1.85:1
Frame rate mode             : Constant
Frame rate                  : 24.000 FPS
Color space                 : YUV
Chroma subsampling          : 4:2:0
Bit depth                   : 8 bits
Scan type                   : Progressive
Bits/(Pixel*Frame)          : 0.108
Stream size                 : 3.44 GiB (93%)
Language                    : English
Default                     : Yes
Forced                      : No
Color range                 : Limited
Color primaries             : BT.709
Transfer characteristics    : BT.709
Matrix coefficients         : BT.709

Audio
ID                          : 2
Format                      : AC-3
Format/Info                 : Audio Coding 3
Format settings, Endianness : Big
Codec ID                    : A_AC3
Duration                    : 1 h 35 min
Bit rate mode               : Constant
Bit rate                    : 384 kb/s
Channel(s)                  : 6 channels
Channel positions           : Front: L C R, Side: L R, LFE
Sampling rate               : 48.0 kHz
Frame rate                  : 31.250 FPS (1536 SPF)
Bit depth                   : 16 bits
Compression mode            : Lossy
Delay relative to video     : -42 ms
Stream size                 : 263 MiB (7%)
Language                    : Spanish
Service kind                : Complete Main
Default                     : Yes
Forced                      : No

Menu
00:00:00.000                : en:CapÃtulo 1
00:10:07.000                : en:CapÃtulo 2
00:21:43.666                : en:CapÃtulo 3
00:31:39.916                : en:CapÃtulo 4
00:40:14.666                : en:CapÃtulo 5
00:50:43.041                : en:CapÃtulo 6
01:00:35.124                : en:CapÃtulo 7
01:10:57.873                : en:CapÃtulo 8
01:20:14.498                : en:CapÃtulo 9



Descomprimir con winrar, 7zip o programa similar.







'El silencio de otros' revela la lucha silenciada de las víctimas del largo régimen del General Franco, que continúan buscando justicia hasta nuestros días. Filmado a lo largo de seis años, la película sigue a las víctimas y los supervivientes del régimen franquista a medida que organizan la denominada “querella argentina” y confrontan un “pacto del olvido” sobre los crímenes que padecieron.

Premios:

2018: Premios Goya: Mejor documental

2018: Festival de Berlín: Premio del público a Mejor Documental (Secc. Panorama)

2018: Premios del Cine Europeo: Nominado a Mejor documental

2018: Premios Forqué: Mejor documental

2019: Premios Platino: Nominado a mejor documental










Descarga todo de un servidor FREE + 1 parte NO FREE

Para descargar tener abierto JDownloader v2, Mipony o programa similar














Contenido Oculto
Debes responder a éste post para ver el contenido oculto.

Visita mi perfil para ver todos mis aportes