• ¡Venta de ConsoleIDs rápidas y confiables!
    ¡Contacta con KAKAROTO!
    Skype: tony83248
    WhatsApp: +34 631 04 19 63
  • Hola Invitado, entérate de los cursos que ofrecemos y manuales que puedes adquirir para aprender hacking y seguridad informática contactando con uno de los administradores de la web o bien mandando un ticket de soporte.

PELICULAS Un lugar para soñar (2011)[Micro Hd 1080p][Castellano]




Kapax

    
Miembro del equipo
Registrado
11 Feb 2018
Mensajes
57
Puntos
8
Ubicación
Cerca de tí


TÍTULO ORIGINAL: We Bought a Zoo
AÑO: 2011
DURACIÓN: 124 min.
PAÍS: [Estados Unidos]
DIRECTOR: Cameron Crowe
GUIÓN: Cameron Crowe, Aline Brosh McKenna (Biografía: Benjamin Mee)
MÚSICA: Jon Thor Birgisson
FOTOGRAFÍA: Rodrigo Prieto
REPARTO: Matt Damon, Scarlett Johansson, Colin Ford, Thomas Haden Church, Elle Fanning, Carla Gallo, Patrick Fugit, Stephanie Szostak, Angus Macfadyen, Peter Riegert
PRODUCTORA: 20th Century Fox
GÉNERO: Drama.Comedia | Basado en hechos reales. Vida rural (Norteamérica). Animales



Basada en la biografía de Benjamin Mee, un hombre que compró un zoo e intentó, con la ayuda de su familia, sacarlo adelante.

Format : Matroska
Format version : Version 2
File size : 3.46 GiB
Duration : 2 h 3 min
Overall bit rate : 3 998 kb/s
Movie name : Un lugar para soñar m-1080p
Encoded date : UTC 2012-04-30 12:00:46
Writing application : mkvmerge v5.5.0 ('Healer') built on Apr 6 2012 21:43:24
Writing library : libebml v1.2.3 + libmatroska v1.3.0
Video
ID : 1
Format : AVC
Format/Info : Advanced Video Codec
Format profile : [email protected]
Format settings, CABAC : Yes
Format settings, ReFrames : 4 frames
Codec ID : V_MPEG4/ISO/AVC
Duration : 2 h 3 min
Bit rate : 3 549 kb/s
Width : 1 920 pixels
Height : 1 040 pixels
Display aspect ratio : 1.85:1
Frame rate mode : Constant
Frame rate : 24.000 FPS
Color space : YUV
Chroma subsampling : 4:2:0
Bit depth : 8 bits
Scan type : Progressive
Bits/(Pixel*Frame) : 0.074
Stream size : 3.00 GiB (87%)
Title : Un lugar para soñar m-1080p
Writing library : x264 core 120 r2164 da19765
Encoding settings : cabac=1 / ref=4 / deblock=1:0:0 / analyse=0x3:0x133 / me=umh / subme=9 / psy=1 / psy_rd=1.00:0.00 / mixed_ref=1 / me_range=16 / chroma_me=1 / trellis=2 / 8x8dct=1 / cqm=0 / deadzone=21,11 / fast_pskip=1 / chroma_qp_offset=-2 / threads=9 / sliced_threads=0 / nr=0 / decimate=1 / interlaced=0 / bluray_compat=0 / constrained_intra=0 / bframes=3 / b_pyramid=2 / b_adapt=2 / b_bias=0 / direct=3 / weightb=1 / open_gop=0 / weightp=2 / keyint=240 / keyint_min=24 / scenecut=40 / intra_refresh=0 / rc_lookahead=60 / rc=2pass / mbtree=1 / bitrate=3549 / ratetol=1.0 / qcomp=0.60 / qpmin=10 / qpmax=51 / qpstep=4 / cplxblur=20.0 / qblur=0.5 / ip_ratio=1.40 / aq=1:1.00
Language : Spanish
Default : Yes
Forced : No
Audio
ID : 2
Format : AC-3
Format/Info : Audio Coding 3
Format settings, Endianness : Big
Codec ID : A_AC3
Duration : 2 h 3 min
Bit rate mode : Constant
Bit rate : 448 kb/s
Channel(s) : 6 channels
Channel positions : Front: L C R, Side: L R, LFE
Sampling rate : 48.0 kHz
Frame rate : 31.250 FPS (1536 spf)
Bit depth : 16 bits
Compression mode : Lossy
Delay relative to video : 18 ms
Stream size : 397 MiB (11%)
Language : Spanish
Service kind : Complete Main
Default : Yes
Forced : No
Text
ID : 3
Format : UTF-8
Codec ID : S_TEXT/UTF8
Codec ID/Info : UTF-8 Plain Text
Language : Spanish
Default : Yes
Forced : No



Contenido Oculto
Debes responder a éste post para ver el contenido oculto.